Login
Username:
Password:
[Signup]
[Recover Account]


Browse Torrents

Poll


You must be logged in to view polls



Latest Torrents
Coopers.Treasure.S...
- [Size: 1.73 GB]

Coopers.Treasure.S...
- [Size: 620.21 MB]

Queen.Sugar.S03E05...
- [Size: 324.51 MB]

American.Chopper.S...
- [Size: 1.14 GB]

Marvels.Luke.Cage....
- [Size: 6.40 GB]


Torrent Details For "Mili (1975) Hindi Untouched 720p WEB-DL x264 AAC - DownloadHD"

Mili (1975) Hindi Untouched 720p WEB-DL x264 AAC - DownloadHD

Download this torrent | Magnet Download
Health:
Seeds: 0
Leechers: 30
Completed: 262 
Last Checked: 03-11-2017 20:21:58
External Torrent
Update Stats


Watch-Free-HD     Download

Poster


iMDB
Imdb Picture Title: Mili
Year: 1975
Runtime: 150 minutes
Votes: 968
Rating: 7.6/10
Language: Hindi
Country: India
All Genres: Drama, Romance, Family, Musical
Plot Outline: Mili is a fantastic romance in which Shekar has moved into an apartment block and does not like the place but sees Mili who he slowly falls in love with only to find out that she only has 2-3 weeks to live.
Director: Hrishikesh Mukherjee
Writing By: Bimal Dutta,Bimal Dutta,Rahi Masoom Reza,Mohini N. Sippy,
Produced By: Hrishikesh Mukherjee,N.C. Sippy,Romu N. Sippy,
Music: Sachin Dev Burman
Plot:

Shekhar Dayal has moved into a new neighborhood, and is just not pleased with the new surroundings. He resents the noise children make while playing, as he prefers quiet and solitude. His reclusion is shattered when his neighbor, Mili, comes into his life. At first he hates the intrusion, but then grows to be fond, and then ultimately fall in love with her. When the time comes for him to propose to this sunny, cheerful, and positive young lady, he is told that she has only a few more months to live.

- Written by rAjOo ([email protected])

Mili is a fantastic romance in which Shekar has moved into an apartment block and does not like the place but sees Mili who he slowly falls in love with only to find out that she only has 2-3 weeks to live.

- Written by Anonymous
Cast:
Ashok Kumar as Mr. Khanna
Amitabh Bachchan as Shekhar Dayal
Usha Kiran as Sharda Khanna
Shubha Khote as Neighbour
Suresh Chatwal as Ranjeet Khanna
Asrani as Drunk (Guest Appearance)
Aruna Irani as Runa Singh
Rajnath as
Naina Apte as
Aarti as


Watch-Free-HD     Download

Details
Name:Mili (1975) Hindi Untouched 720p WEB-DL x264 AAC - DownloadHD
Description:
Mili (1975) Hindi Untouched 720p WEB-DL x264 AAC - DownloadHD


Format                                   : MPEG-4
Format profile                           : Base Media
Codec ID                                 : isom (isom/iso2/avc1/mp41)
File size                                : 1.32 GiB
Duration                                 : 1 h 55 min
Overall bit rate                         : 1 633 kb/s


Video
ID                                       : 1
Format                                   : AVC
Format/Info                              : Advanced Video Codec
Format profile                           : [email protected]
Format settings, CABAC                   : Yes
Format settings, ReFrames                : 3 frames
Format settings, GOP                     : M=1, N=50
Codec ID                                 : avc1
Codec ID/Info                            : Advanced Video Coding
Duration                                 : 1 h 55 min
Bit rate                                 : 1 500 kb/s
Width                                    : 1 280 pixels
Height                                   : 720 pixels
Display aspect ratio                     : 16:9
Frame rate mode                          : Constant
Frame rate                               : 25.000 FPS
Color space                              : YUV
Chroma subsampling                       : 4:2:0
Bit depth                                : 8 bits
Scan type                                : Progressive
Bits/(Pixel*Frame)                       : 0.065
Stream size                              : 1.21 GiB (92%)
Writing library                          : Zencoder Video Encoding System
Color range                              : Limited
Color primaries                          : BT.709
Transfer characteristics                 : BT.709
Matrix coefficients                      : BT.709

Audio
ID                                       : 2
Format                                   : AAC
Format/Info                              : Advanced Audio Codec
Format profile                           : LC
Codec ID                                 : 40
Duration                                 : 1 h 55 min
Bit rate mode                            : Constant
Bit rate                                 : 128 kb/s
Channel(s)                               : 2 channels
Channel positions                        : Front: L R
Sampling rate                            : 44.1 kHz
Frame rate                               : 43.066 FPS (1024 spf)
Compression mode                         : Lossy
Stream size                              : 106 MiB (8%)
Default                                  : Yes
Alternate group                          : 1



                     
Category:Movies > Bollywood
Lang:Hindi
Total Size:1.32 GB
Info Hash:9eb2673e87fa49bcedabb6233033b92b6bd1ba4a
Added By:Unknown
Date Added:19-04-2017 15:46:40
Downloads:219

Download Torrent

Ratings:Not Yet Rated (Log in to rate it)


Tracker:
udp://tracker.coppersurfer.tk:6969/announce


File List: 


Comments

No comments still posted

Powered by 10 Hamsters v2-svn -|- Page Generated In 1.702096 secs.
-|- RSS Feed -|- Feed Info
Theme By: Nikkbu