Login
Username:
Password:
[Signup]
[Recover Account]


Browse Torrents

Poll


You must be logged in to view polls



Latest Torrents
Wicked.Tuna.S07E15...
- [Size: 1.40 GB]

Marlon S01 (E01 - ...
- [Size: 571.02 MB]

Race 3 (2018) New ...
- [Size: 630.52 MB]

Rampage (2018) 108...
- [Size: 1.62 GB]

Rampage (2018)[720...
- [Size: 1.03 GB]


Torrent Details For "The Lego 2014 x264 720p Esub BluRay Dual Audio English Hindi GOPISAHI"

The Lego 2014 x264 720p Esub BluRay Dual Audio English Hindi GOPISAHI

Download this torrent | Magnet Download
Health:
Seeds: 193
Leechers: 157
Completed: 198 
Last Checked: 12-06-2018 12:14:36
External Torrent
Update Stats


Watch-Free-HD     Download

Poster
No poster


Watch-Free-HD     Download

Details
Name:The Lego 2014 x264 720p Esub BluRay Dual Audio English Hindi GOPISAHI
Description:
 http://www.gopisahi.pw/

Format                         : Matroska
Format version                 : Version 4 / Version 2
File size                      : 705 MiB
Duration                       : 1 h 40 min
Overall bit rate               : 980 kb/s
Movie name                     : The Lego 2014 GOPISAHI

Video
Format                         : AVC
Codec ID                       : V_MPEG4/ISO/AVC
Duration                       : 1 h 40 min
Bit rate                       : 800 kb/s
Width                          : 1 280 pixels
Height                         : 536 pixels
Display aspect ratio           : 2.40:1
Frame rate mode                : Constant
Frame rate                     : 23.976 (24000/1001) FPS
Color space                    : YUV
Chroma subsampling             : 4:2:0
Bit depth                      : 8 bits
Scan type                      : Progressive
Bits/(Pixel*Frame)             : 0.049
Stream size                    : 576 MiB (82%)
Title                          : GOPISAHI
Writing library                : x264 core 155 r2893 b00bcaf

Audio #1
Format                         : AAC
Duration                       : 1 h 40 min
Bit rate                       : 88.9 kb/s
Channel(s)                     : 6 channels
Channel positions              : Front: L C R, Side: L R, LFE
Sampling rate                  : 44.1 kHz
Frame rate                     : 43.066 FPS (1024 SPF)
Compression mode               : Lossy
Stream size                    : 64.0 MiB (9%)
Title                          : GOPISAHI
Language                       : Hindi

Audio #2
Format                         : AAC
Duration                       : 1 h 40 min
Bit rate                       : 87.9 kb/s
Channel(s)                     : 6 channels
Channel positions              : Front: L C R, Side: L R, LFE
Sampling rate                  : 44.1 kHz
Frame rate                     : 43.066 FPS (1024 SPF)
Compression mode               : Lossy
Stream size                    : 63.2 MiB (9%)
Title                          : GOPISAHI
Language                       : English

Text


Category:Movies > Hollywood Dub
Lang:Hindi
Total Size:704.97 MB
Info Hash:ccfb4382063f92726c255d0095354bcc36a46c19
Added By:gopisahi
Date Added:12-06-2018 04:53:32
Downloads:180

Download Torrent

Ratings:Not Yet Rated (Log in to rate it)


Tracker:
udp://9.rarbg.com:2740/announce


File List: 


Comments

No comments still posted

Powered by 10 Hamsters v2-svn -|- Page Generated In 0.473086 secs.
-|- RSS Feed -|- Feed Info
Theme By: Nikkbu