Login
Username:
Password:
[Signup]
[Recover Account]


Browse Torrents

Poll


You must be logged in to view polls



Latest Torrents
Rampage (2018) 720...
- [Size: 944.19 MB]

LEGO DC Comics Sup...
- [Size: 550.94 MB]

Ek Zabardast Fight...
- [Size: 2.13 GB]

Race 3 - 2018 Hind...
- [Size: 1.34 GB]

Ek Zabardast Fight...
- [Size: 959.71 MB]


Torrent Details For "Baaghi 2 (2018) Hindi v2 Proper HDRip - 700MB - x264 ESubs [MovCr]"

Baaghi 2 (2018) Hindi v2 Proper HDRip - 700MB - x264 ESubs [MovCr]

Download this torrent | Magnet Download
Health:
Seeds: 72
Leechers: 106
Completed: 259 
Last Checked: 11-06-2018 19:14:16
External Torrent
Update Stats


Watch-Free-HD     Download

Poster


iMDB
Imdb Picture Title: Baaghi 2
Year: 2018
Language: Hindi
Country: India
All Genres: Action
Plot Outline: Ronny, is hired by ex-lover Neha, to track down her daughter Riya, who has been kidnapped.
Director: Ahmed Khan
Writing By: Hussain Dalal,Abbas Hirapurwala,Jojo Khan,Niraj Kumar Mishra,Sajid Nadiadwala,
Produced By: Bharat Bohra,Dipti Jindal,Rakesh Madhotra,Sajid Nadiadwala,Vikram Raazdan,Vijay Singh,
Music: Mithoon Julius Packiam
Cast:
Disha Patani as Neha
Tiger Shroff as Ronny
Randeep Hooda as
Manoj Bajpayee as
Lakshmi Manchu as
Prateik as
Shifuji Shaurya Bharadwaj as
Paras Arora as
Darshan Kumar as
Indraneel Bhattacharya as
Trailers:
Baaghi 2 Trailer


Watch-Free-HD     Download

Details
Name:Baaghi 2 (2018) Hindi v2 Proper HDRip - 700MB - x264 ESubs [MovCr]
Description:
Our Site  www.movcr.com

 http://www.imdb.com/title/tt6843812/

 

General
Unique ID                   : 49953720059182475834315248603619037778 (0x2594BC8D336106B763DE5C729F4E9252)
Complete name               : www.MovCr.com - Baaghi 2 (2018) Hindi Proper HDRip - 700MB - x264 ESubs [MovCr].mkv
Format                      : Matroska
Format version              : Version 4 / Version 2
File size                   : 697 MiB
Duration                    : 2 h 14 min
Overall bit rate mode       : Variable
Overall bit rate            : 724 kb/s
Movie name                  : www.MovCr.com
Encoded date                : UTC 2018-06-11 04:22:34
Writing application         : mkvmerge v23.0.0 ('The Bride Said No') 64-bit
Writing library             : libebml v1.3.6 + libmatroska v1.4.9

Video
ID                          : 1
Format                      : AVC
Format/Info                 : Advanced Video Codec
Format profile              : [email protected]
Format settings, CABAC      : Yes
Format settings, ReFrames   : 4 frames
Codec ID                    : V_MPEG4/ISO/AVC
Duration                    : 2 h 14 min
Bit rate                    : 628 kb/s
Width                       : 720 pixels
Height                      : 304 pixels
Display aspect ratio        : 2.35:1
Frame rate mode             : Constant
Frame rate                  : 25.000 FPS
Color space                 : YUV
Chroma subsampling          : 4:2:0
Bit depth                   : 8 bits
Scan type                   : Progressive
Bits/(Pixel*Frame)          : 0.115
Stream size                 : 604 MiB (87%)
Title                       : www.MovCr.com
Writing library             : x264 core 155 r2901 7d0ff22
Encoding settings           : cabac=1 / ref=3 / deblock=1:0:0 / analyse=0x3:0x113 / me=hex / subme=7 / psy=1 / psy_rd=1.00:0.00 / mixed_ref=1 / me_range=16 / chroma_me=1 / trellis=1 / 8x8dct=1 / cqm=0 / deadzone=21,11 / fast_pskip=1 / chroma_qp_offset=-2 / threads=9 / lookahead_threads=1 / sliced_threads=0 / nr=0 / decimate=1 / interlaced=0 / bluray_compat=0 / constrained_intra=0 / bframes=3 / b_pyramid=2 / b_adapt=1 / b_bias=0 / direct=1 / weightb=1 / open_gop=0 / weightp=2 / keyint=250 / keyint_min=25 / scenecut=40 / intra_refresh=0 / rc_lookahead=40 / rc=2pass / mbtree=1 / bitrate=628 / ratetol=1.0 / qcomp=0.60 / qpmin=0 / qpmax=69 / qpstep=4 / cplxblur=20.0 / qblur=0.5 / ip_ratio=1.40 / aq=1:1.00
Language                    : Hindi
Default                     : Yes
Forced                      : No

Audio
ID                          : 2
Format                      : MPEG Audio
Format version              : Version 1
Format profile              : Layer 3
Mode                        : Joint stereo
Mode extension              : MS Stereo
Codec ID                    : A_MPEG/L3
Codec ID/Hint               : MP3
Duration                    : 2 h 14 min
Bit rate mode               : Variable
Bit rate                    : 96.0 kb/s
Channel(s)                  : 2 channels
Sampling rate               : 48.0 kHz
Frame rate                  : 41.667 FPS (1152 spf)
Compression mode            : Lossy
Stream size                 : 90.7 MiB (13%)
Title                       : www.MovCr.com
Writing library             : LAME3.99r
Encoding settings           : -m j -V 4 -q 3 -lowpass 15.1 --abr 96
Language                    : Hindi
Default                     : Yes
Forced                      : No

Text
ID                          : 3
Format                      : UTF-8
Codec ID                    : S_TEXT/UTF8
Codec ID/Info               : UTF-8 Plain Text
Duration                    : 2 h 11 min
Bit rate                    : 59 b/s
Count of elements           : 1833
Stream size                 : 56.9 KiB (0%)
Title                       : www.MovCr.com
Language                    : English
Default                     : Yes
Forced                      : No



 
 
 
 
 
 
 
 
 
 
 
 
 
Category:Movies > Bollywood
Lang:Hindi
Total Size:697.36 MB
Info Hash:1f65a6098eb9a5280316e1b34951737cea36a9f1
Added By:Kingmaker
Date Added:11-06-2018 05:33:57
Downloads:178

Download Torrent

Ratings:Not Yet Rated (Log in to rate it)


Tracker:
udp://tracker.openbittorrent.com:80/announce

This Torrent also has backup trackers
URLSeedersLeechersCompleted
http://share.camoe.cn:8080/announce000
http://t.nyaatracker.com:80/announce000
http://asnet.pw:2710/announce000
http://tracker.tfile.co:80/announce000
http://pt.lax.mx:80/announce000


File List: 


Comments

No comments still posted

Powered by 10 Hamsters v2-svn -|- Page Generated In 2.393437 secs.
-|- RSS Feed -|- Feed Info
Theme By: Nikkbu