Login
Username:
Password:
[Signup]
[Recover Account]


Browse Torrents

Poll


You must be logged in to view polls



Latest Torrents
Real.Time.With.Bil...
- [Size: 1,000.00 MB]

Real.Time.With.Bil...
- [Size: 306.62 MB]

Fatal.Defense.2018...
- [Size: 1.36 GB]

Deadly.Secrets.by....
- [Size: 1.20 GB]

Shaun of the Dead ...
- [Size: 1,000.53 MB]


Torrent Details For "Batman Vs Superman Dawn of Justice (2016) BluRay 720p x264 Dual Audio [Hindi 5.1 + English 2.0..."

Batman Vs Superman Dawn of Justice (2016) BluRay 720p x264 Dual Audio [Hindi 5.1 + English 2.0...

Download this torrent | Magnet Download
Health:
Seeds: 0
Leechers: 3
Completed:
Last Checked: 13-04-2018 09:19:37
External Torrent
Update Stats


Watch-Free-HD     Download

Poster


iMDB
Imdb Picture Title: Batman v Superman: Dawn of Justice
Year: 2016
Runtime: 151 minutes
Votes: 469155
Rating: 6.7/10
Language: English
Country: USA
All Genres: Action, Adventure, Sci-Fi
Plot Outline: Fearing that the actions of Superman are left unchecked, Batman takes on the Man of Steel, while the world wrestles with what kind of a hero it really needs.
Tagline: Who will win?
Director: Zack Snyder
Writing By: Chris Terrio,David S. Goyer,Bob Kane,Bill Finger,Jerry Siegel,Joe Shuster,Paul Dini,Bruce Timm,
Produced By: Trevor Christie,Wesley Coller,David S. Goyer,Geoff Johns,Curt Kanemoto,Benjamin Melniker,Steven Mnuchin,Bruce Moriarty,Christopher Nolan,Charles Roven,Jim Rowe,Deborah Snyder,Emma Thomas,Michael Uslan,Andrea Wertheim,Gregor Wilson,
Music: Junkie XL Hans Zimmer
Plot:

The general public is concerned over having Superman on their planet and letting the "Dark Knight" - Batman - pursue the streets of Gotham. While this is happening, a power-phobic Batman tries to attack Superman.,Meanwhile Superman tries to settle on a decision, and Lex Luthor, the criminal mastermind and millionaire, tries to use his own advantages to fight the "Man of Steel".

- Written by Mine Turtle

Society is fearing there should be no Superman because of his alien like actions and Batman is the one who agrees and will also take Superman down. While Superman fears that Batman's actions are reckless and fearing others, owner of Lex Corp Lex Luthor is plotting something that will destroy mankind. Will one of the heroes fall or will Lex Luthor take over Metropolis?

In the wake of the destruction of Metropolis, the people try to determine whether Superman should be praised as a hero or if he should turn himself over to the authorities. Batman on the other hand sees Superman as a danger to everyone and prepares to take on the Man of Steel himself. On a side note, Lex Luthor plots to destroy mankind while mysterious Diana Prince/Wonder Woman pursues her own plans. Will one triumph over the other? Or will the world face certain doom?

- Written by Blazer346

The world changed when mankind, the citizens of Metropolis and billionaire Bruce Wayne were witness to the awesome power of the Superman. Now 2 years later, the love affair is seemingly ended when the Man of Steel becomes involved in the complexities of international politics with lives lost amidst terrorists/rebels. As journalist Lois Lane attempts to clear his name, Senate Hearings and the media compel Superman to work within the system, the Batman escalates his war on crime seeking a means to end the potential threat of Superman and Lex Luthor appears to be pulling strings behind the scenes.

Fearing that the actions of Superman are left unchecked, Batman takes on the Man of Steel, while the world wrestles with what kind of a hero it really needs.

- Written by TheArrowMan
Cast:
Ben Affleck as Bruce Wayne / Batman
Henry Cavill as Clark Kent / Superman
Amy Adams as Lois
Jesse Eisenberg as Lex Luthor
Diane Lane as Martha Kent
Laurence Fishburne as Perry White
Jeremy Irons as Alfred
Holly Hunter as Senator Finch
Gal Gadot as Diana Prince / Wonder Woman
Scoot McNairy as Wallace Keefe
Trailers:
Comic-Con Trailer
Ultimate Edition Trailer
Theatrical Trailer
TV Spot #3
Trailer #3
Teaser Trailer


Watch-Free-HD     Download

Details
Name:Batman Vs Superman Dawn of Justice (2016) BluRay 720p x264 Dual Audio [Hindi 5.1 + English 2.0...
Description:
Format                                   : Matroska
Format version                           : Version 4 / Version 2
File size                                : 1.37 GiB
Duration                                 : 2 h 31 min
Overall bit rate                         : 1 288 kb/s
Encoded date                             : UTC 2017-05-27 18:14:26
Writing application                      : mkvmerge v7.0.0 ('Where We Going') 64bit built on Jun  9 2014 15:16:27
Writing library                          : libebml v1.3.0 + libmatroska v1.4.1

Video
ID                                       : 1
Format                                   : AVC
Format/Info                              : Advanced Video Codec
Format profile                           : [email protected]
Format settings, CABAC                   : Yes
Format settings, ReFrames                : 12 frames
Codec ID                                 : V_MPEG4/ISO/AVC
Duration                                 : 2 h 31 min
Bit rate                                 : 935 kb/s
Width                                    : 1 280 pixels
Height                                   : 536 pixels
Display aspect ratio                     : 2.40:1
Frame rate mode                          : Constant
Frame rate                               : 23.976 (24000/1001) FPS
Color space                              : YUV
Chroma subsampling                       : 4:2:0
Bit depth                                : 8 bits
Scan type                                : Progressive
Bits/(Pixel*Frame)                       : 0.057
Stream size                              : 1 014 MiB (73%)
Writing library                          : x264 core 148 r2638 7599210
Default                                  : Yes
Forced                                   : No
Color range                              : Limited
Color primaries                          : Generic film
Transfer characteristics                 : BT.709
Matrix coefficients                      : BT.709

Audio #1
ID                                       : 2
Format                                   : AAC
Format/Info                              : Advanced Audio Codec
Format profile                           : LC
Codec ID                                 : A_AAC
Duration                                 : 2 h 31 min
Bit rate                                 : 255 kb/s
Channel(s)                               : 6 channels
Channel positions                        : Front: L C R, Side: L R, LFE
Sampling rate                            : 48.0 kHz
Frame rate                               : 46.875 FPS (1024 spf)
Compression mode                         : Lossy
Stream size                              : 277 MiB (20%)
Language                                 : Hindi
Default                                  : Yes
Forced                                   : No

Audio #2
ID                                       : 3
Format                                   : AAC
Format/Info                              : Advanced Audio Codec
Format profile                           : LC
Codec ID                                 : A_AAC
Duration                                 : 2 h 31 min
Bit rate                                 : 96.0 kb/s
Channel(s)                               : 2 channels
Channel positions                        : Front: L R
Sampling rate                            : 48.0 kHz
Frame rate                               : 46.875 FPS (1024 spf)
Compression mode                         : Lossy
Delay relative to video                  : 9 ms
Stream size                              : 104 MiB (7%)
Language                                 : English
Default                                  : No
Forced                                   : No




 
 
 
 
 
 
 
 




Category:Movies > Hollywood Dub
Lang:Hindi
Total Size:1.37 GB
Info Hash:4f8a83575694f187b8609c17b21b7eab54389aec
Added By:link2download
Date Added:29-05-2017 17:55:21
Downloads:650

Download Torrent

Ratings:Not Yet Rated (Log in to rate it)


Tracker:
udp://tracker.openbittorrent.com:80/announce


File List: 


Comments

No comments still posted

Powered by 10 Hamsters v2-svn -|- Page Generated In 2.247744 secs.
-|- RSS Feed -|- Feed Info
Theme By: Nikkbu