Login
Username:
Password:
[Signup]
[Recover Account]


Browse Torrents

Poll


You must be logged in to view polls



Latest Torrents
Real.Time.With.Bil...
- [Size: 1,000.00 MB]

Real.Time.With.Bil...
- [Size: 306.62 MB]

Fatal.Defense.2018...
- [Size: 1.36 GB]

Deadly.Secrets.by....
- [Size: 1.20 GB]

Shaun of the Dead ...
- [Size: 1,000.53 MB]


Torrent Details For "Ishq Ke Parindey (2015) Hindi 720p HDRip x264 AAC.-.link2download"

Ishq Ke Parindey (2015) Hindi 720p HDRip x264 AAC.-.link2download

Download this torrent | Magnet Download
Health:
Seeds: 0
Leechers: 11
Completed:
Last Checked: 30-05-2017 14:33:51
External Torrent
Update Stats


Watch-Free-HD     Download

Poster


iMDB
Imdb Picture Title: Ishq Ke Parindey
Year: 2015
Runtime: 120 minutes
Votes: 13
Rating: 8.7/10
Language: Hindi
Country: India
All Genres: Music, Romance
Plot Outline: Saare Jahan Se Achchha Hindustan Hamara Hum Bulbule Hain Iski Ye Gulsitan Hamara When Allama Iqbal wrote the above couplet he never knew that the seeds sown by the British would lead to the...
Director: Shakir Khan
Writing By: Rajeev Arora,Shakir Khan,Riturraj Tripathii,
Produced By: Pawan Goyal,
Music: Sajjad Ali Rashid Khan Vijay Verma
Plot:

Saare Jahan Se Achchha Hindustan Hamara Hum Bulbule Hain Iski Ye Gulsitan Hamara When Allama Iqbal wrote the above couplet he never knew that the seeds sown by the British would lead to the creation of India and Pakistan. The land nurtured by the romantic poetry of Ghalib became a battleground. Friends for generations were separated forever in the name of partition. Humanity was buried under hatred. Sheen, the love bird from Pakistan flies down to Lucknow, the city of Nawabs. Faiz, the poet at heart, is mesmerised by the angelic beauty from heaven. Across rooftops and in the by lanes of Lucknow blossoms the innocent love of Sheen and Faiz. Bloodshed in the name of supremacy is a common phenomenon in India and Pakistan. Sheen's entire family was engulfed in gang wars in Pakistan. The violence she hated and thought she left behind in Pakistan accidentally creeps into her love life. Sheen and Faiz would face any thunderstorm to protect the flame of love. Thus begins the soulful journey of the love birds... Ishq Ke Parindey.

- Written by Ashwani Shukla (Publicist)
Cast:
Rishi Verma as Faiz
Priyanka Mehta as Sheen
Manjul Azad as Kadir Bhai
Abid Yunus Khan as Chotey
Pran Dawas as Chhoroo
Munisha Roy as Gazala
Yasir as Shadab


Watch-Free-HD     Download

Details
Name:Ishq Ke Parindey (2015) Hindi 720p HDRip x264 AAC.-.link2download
Description:
Format                                   : Matroska
Format version                           : Version 4 / Version 2
File size                                : 788 MiB
Duration                                 : 1 h 53 min
Overall bit rate                         : 972 kb/s
Encoded date                             : UTC 2017-05-20 20:46:09
Writing application                      : mkvmerge v7.0.0 ('Where We Going') 64bit built on Jun  9 2014 15:16:27
Writing library                          : libebml v1.3.0 + libmatroska v1.4.1

Video
ID                                       : 1
Format                                   : AVC
Format/Info                              : Advanced Video Codec
Format profile                           : [email protected]
Format settings, CABAC                   : Yes
Format settings, ReFrames                : 4 frames
Codec ID                                 : V_MPEG4/ISO/AVC
Duration                                 : 1 h 53 min
Bit rate                                 : 842 kb/s
Width                                    : 1 280 pixels
Height                                   : 544 pixels
Display aspect ratio                     : 2.35:1
Frame rate mode                          : Constant
Frame rate                               : 23.976 (24000/1001) FPS
Color space                              : YUV
Chroma subsampling                       : 4:2:0
Bit depth                                : 8 bits
Scan type                                : Progressive
Bits/(Pixel*Frame)                       : 0.050
Stream size                              : 683 MiB (87%)
Writing library                          : x264 core 148 r2708 86b7198
Default                                  : Yes
Forced                                   : No
Color range                              : Limited
Color primaries                          : BT.709
Transfer characteristics                 : BT.709
Matrix coefficients                      : BT.709

Audio
ID                                       : 2
Format                                   : AAC
Format/Info                              : Advanced Audio Codec
Format profile                           : LC
Codec ID                                 : A_AAC
Duration                                 : 1 h 53 min
Bit rate                                 : 128 kb/s
Channel(s)                               : 2 channels
Channel positions                        : Front: L R
Sampling rate                            : 48.0 kHz
Frame rate                               : 46.875 FPS (1024 spf)
Compression mode                         : Lossy
Delay relative to video                  : -21 ms
Stream size                              : 103 MiB (13%)
Language                                 : Hindi
Default                                  : Yes
Forced                                   : No






 
 
 
 
 
 
 
 
 
 
 
 
 







SAMPLE










Category:Movies > Bollywood
Lang:Hindi
Total Size:788.20 MB
Info Hash:fa3590a4ac4ebc7d5fdf85b7976fcaef6752040e
Added By:link2download
Date Added:20-05-2017 21:58:07
Downloads:487

Download Torrent

Ratings:Not Yet Rated (Log in to rate it)


Tracker:
udp://tracker.openbittorrent.com:80/announce


File List: 


Comments

No comments still posted

Powered by 10 Hamsters v2-svn -|- Page Generated In 3.906510 secs.
-|- RSS Feed -|- Feed Info
Theme By: Nikkbu